//]]>-->

Delvis Løst: H.264 AVI video til MPEG2 og DVD video

alt om grafiske brukergrensesnitt (GNOME, KDE, osv.), applikasjoner tett knyttet til disse og multimedia.

Delvis Løst: H.264 AVI video til MPEG2 og DVD video

Innleggav terjejh » søn 01.03.2009 17:07

Har tatt opp noen 1280x720p H.264 AVI 30 fps videoklipp med et HD-SDHC videokamera. AVI filene lar seg spille best av med Xine på Linux, som også klarer å skalere dem opp i fullskjermmodus på en 1920x1200 skjerm. Gnome Mplayer klarer avspilling i normal størrelse 1280x720.

For redigering og ekstern avspilling ønsker jeg å konvertere disse 16:9 AVI lyd/videofilene til annet format (container/codecs) som følger:

1) MPEG2 (ev. .M2T/HDV) i 1280x720p

2) DVD video i 720x576 PAL

Forslag til konverteringskommandoer med ffmpeg el. andre frie verktøy?

Edit:
Jeg kom fram til følgende løsninger:


Formatet på H.264 AVI klippene finnes slik:
Kode: Merk alt
ffmpeg -i clip0021.avi
.........
Input #0, avi, from 'clip0021.avi':
  Duration: 00:01:41.76, start: 0.000000, bitrate: 4242 kb/s
    Stream #0.0: Video: h264, yuv420p, 1280x720, 30.00 tb(r)
    Stream #0.1: Audio: adpcm_ms, 22050 Hz, mono, s16, 88 kb/s

1) Konvertere til MPEG2 i 1280x720p

alt. 1 med utgangspunkt i DVD video:
Kode: Merk alt
ffmpeg -i clip0021.avi -target pal-dvd -s 1280x720 clip0021_1280x720.mpg

alt. 2 annet mpeg2 og mp3 format (forslag?)

2) Konvertere til DVD video i 720x576 PAL

alt. 1 ved beskjæring av sidene og beholde høyden:
Kode: Merk alt
ffmpeg -i clip0021.avi -cropleft 160 -cropright 160 -target pal-dvd -aspect 4:3 clip0021.mpg

alt. 2 ved å legge på svarte striper oppe og ned og beholde wide-formatet i bredden (letterbox)
Kode: Merk alt
ffmpeg -i clip0021.avi -target pal-dvd -s 720x404 -padtop 86 -padbottom 86 clip0021_ltrbox.mpg

Erfaren
Brukerens avatar
medlem i 168 måneder
 

Returner til Skrivebord / Multimedia



Hvem er i Forumene

Registrerte brukere: Google [Bot]